загрузка пожалуйста подождите

GRACE CLOWN SHOW(Шоу Клоуна Благодати)



Страницы: «  1 2 3 4 5 6 7 ... 16 17 18 19 20 
Образ зверя (1-3 серии) (2005) DVD5
Образ зверя (1-3 серии) (2005) DVD5

Размер: 4.06 GB
Добавлен: 2013-03-08 12:41:14
0044 4
Оригинальное название: Образ зверя
Жанр: Драма, триллер
Год выхода: 2005
Страна: Россия
Режиссер: Игорь Корнеев
В ролях: Гарустович Эдуард, Пузенков Андрей, Мирский Леонид, Любезнова Катя, Баранов Константин, Ергалиев Нариман, Гарустович Дмитрий, Гарустович Андрей, Гарустович Олег, Жестарева Ольга, Захаров Сергей, Малити Зарина, Шакунов Сергей, Серебряков Александр.

Описание:

Серия 1. Скрытый текст / Картинка

Фильм рассказывает о жизни российского бизнесмена, которому дьявол предложил легкий способ обогащения. Желая обеспечить счастливое будущее себе и своей семье, Эдик после недолгого раздумья соглашается. В результате совершения незаконной сделки, он получает крупную сумму и возможность повысить свой уровень жизни. Вскоре афера вскрывается и ничего не остается делать, как просить помощи у дьявола.
Дьявол обещает помочь, но требует....его душу...

Серия 2. Скрытый текст / Картинка

Двум старым друзьям в руки попадает старинная драгоценность, вокруг которой начинают происходить очень странные и трагичные события...

Серия 3. Скрытый текст / Картинка

Третья часть является развязкой событий первой и второй части, где переплетаются судьбы героев обеих частей.
Эдуард (1 часть) принимает предложение дьявола работать в его "команде" и его благосостояние начинает резко расти. Но вместо обещанного счастья в жизни Эдуарда происходит трагедия...
Герой второй части, решает довести дело, связанное с продажей драгоценного перстня и после этого положить конец криминалу в своей жизни. Однако - это было только началом злоключений Серого и его друга...


Доп.информация:
Фильм - финалист международного кинофорума "Время жить".

Качество: DVD5
Видео: MPEG-2, PAL, 768x576 (4:3), 25.000 fps, ~9586 kbps
Аудио: AC-3, 192 kbps, 2 channels, 48.0 KHz
Продолжительность: 3 серии по 01:24:00
Перевод: Русский (оригинал)

DVDRip находится ЗДЕСЬ


Невозможное / Lo imposible (2012) BDRemux, 1080p
Невозможное / Lo imposible (2012) BDRemux, 1080p

Размер: 23.02 GB
Добавлен: 2013-02-13 13:07:04
0119 7
Русское название: Невозможное
Оригинальное название: Lo imposible
Год выпуска: 2012
Жанр: Триллер, Драма
Выпущено: Испания, Summit Entertainment
Режиссер: Хуан Антонио Байона
Актеры: Наоми Уоттс, Юэн МакГрегор, Том Холлэнд, Сэмюэл Джослин, Оакли Пендергаст, Марта Этура, Шенке Меринг, Джеральдин Чаплин, Плой Хиндачоте, Жомжаои Сэ-Лим

Описание фильма:
Во все времена человек был практически беззащитен перед стихиями природы, будь то ураган, тайфун, паводок, снежная лавина или цунами. И даже в наше время высокого развития технологий и создания мощных машин ситуация не изменилась. Действие этого фильма происходит в 2004 году. На город обрушивается цунами огромной силы, разрушая все, что можно разрушить. Людям остается только спасать себя и своих близких любыми путями, прилагая невероятные усилия. Здесь волей-неволей приходится раскрывать самые непредвиденные возможности своего организма и мышления. Вот именно так и становится невозможное возможным.

Дополнительно:
Рейтинг PG-13 - Дети до 13 лет допускаются на фильм только с родителями
Дата мировой премьеры: 9 сентября 2012
Дата российской премьеры: 14 февраля 2013, «Централ Партнершип»

Качество: BDRemux, 1080p
Формат: MKV
Видео: MPEG-4 AVC/H.264, 26761 Кбит/с, 1920x1080 (16:9), 24,000 кадра/сек
Аудио #1: Русский (AC3, 2 ch, 192 Кбит/с) [Двухголосый закадровый]
Аудио #2: Английский (DTS-HD MA, 6 ch, 2035 Кбит/с) [Оригинальный]
Продолжительность: 01:53:41
Перевод: Русский, двуголосый закадровый
Язык субтитров: Испанские, русские
Вид субтитров: Вшитые, отключаемые
MediaInfo: Скрытый текст / Картинка
Общее
Формат                                   : Matroska
Версия формата                           : Version 2
Размер файла                             : 23,0 Гбайт
Продолжительность                        : 1 ч. 53 м.
Режим общего битрейта                    : Переменный
Общий поток                              : 29,0 Мбит/сек
Название фильма                          : Denils
Дата кодирования                         : UTC 2013-02-10 03:31:29
Программа кодирования                    : mkvmerge v4.0.0 ('The Stars were mine') сборка от Jun  6 2010 16:18:42
Библиотека кодирования                   : libebml v1.0.0 + libmatroska v1.0.0

Видео
Идентификатор                            : 1
Формат                                   : AVC
Формат/Информация                        : Advanced Video Codec
Профиль формата                          : High@L4.1
Параметр CABAC формата                   : Да
Параметр ReFrames формата                : 4 кадра
Идентификатор кодека                     : V_MPEG4/ISO/AVC
Продолжительность                        : 1 ч. 53 м.
Вид битрейта                             : Переменный
Максимальный битрейт                     : 35,0 Мбит/сек
Ширина                                   : 1920 пикселей
Высота                                   : 1080 пикселей
Соотношение сторон                       : 16:9
Режим частоты кадров                     : Постоянный
Частота кадров                           : 24,000 кадра/сек
Стандарт вещания                         : NTSC
Цветовое пространство                    : YUV
Субдискретизация насыщенности            : 4:2:0
Битовая глубина                          : 8 бит
Тип развёртки                            : Прогрессивная
Язык                                     : English
Default                                  : Нет
Forced                                   : Нет
Основные цвета                           : BT.709
Характеристики трансфера                 : BT.709
Коэффициенты матрицы                     : BT.709

Аудио #1
Идентификатор                            : 2
Формат                                   : AC-3
Формат/Информация                        : Audio Coding 3
Расширение режима                        : CM (complete main)
Параметр Endianness формата              : Big
Идентификатор кодека                     : A_AC3
Продолжительность                        : 1 ч. 53 м.
Вид битрейта                             : Постоянный
Битрейт                                  : 192 Кбит/сек
Каналы                                   : 2 канала
Расположение каналов                     : Front: L R
Частота                                  : 48,0 КГц
Битовая глубина                          : 16 бит
Метод сжатия                             : С потерями
Размер потока                            : 156 Мбайт (1%)
Язык                                     : Russian
Default                                  : Да
Forced                                   : Да

Аудио #2
Идентификатор                            : 3
Формат                                   : DTS
Формат/Информация                        : Digital Theater Systems
Профиль формата                          : MA / Core
Режим                                    : 16
Параметр Endianness формата              : Big
Идентификатор кодека                     : A_DTS
Продолжительность                        : 1 ч. 53 м.
Вид битрейта                             : Переменный
Битрейт                                  : Неизвестно / 1509 Кбит/сек
Каналы                                   : 6 каналов
Расположение каналов                     : Front: L C R, Side: L R, LFE
Частота                                  : 48,0 КГц
Битовая глубина                          : 16 бит
Метод сжатия                             : Без потерь / Lossy
Язык                                     : English
Default                                  : Нет
Forced                                   : Нет

Текст #1
Идентификатор                            : 4
Формат                                   : PGS
Идентификатор кодека                     : S_HDMV/PGS
Идентификатор кодека/Информация          : The same subtitle format used on BDs/HD-DVDs
Заголовок                                : Castilian Spanish
Язык                                     : Spanish
Default                                  : Нет
Forced                                   : Нет

Текст #2
Идентификатор                            : 5
Формат                                   : PGS
Идентификатор кодека                     : S_HDMV/PGS
Идентификатор кодека/Информация          : The same subtitle format used on BDs/HD-DVDs
Заголовок                                : Castilian Spanish, SDH
Язык                                     : Spanish
Default                                  : Нет
Forced                                   : Нет

Текст #3
Идентификатор                            : 6
Формат                                   : UTF-8
Идентификатор кодека                     : S_TEXT/UTF8
Идентификатор кодека/Информация          : UTF-8 Plain Text
Язык                                     : Russian
Default                                  : Да
Forced                                   : Нет

Меню
00:00:00.000                             : en:00:00:00.000
00:07:10.292                             : en:00:07:10.292
00:12:50.875                             : en:00:12:50.875
00:21:20.250                             : en:00:21:20.250
00:27:02.625                             : en:00:27:02.625
00:31:59.083                             : en:00:31:59.083
00:38:13.792                             : en:00:38:13.792
00:44:35.833                             : en:00:44:35.833
00:51:09.125                             : en:00:51:09.125
00:56:24.042                             : en:00:56:24.042
01:03:24.583                             : en:01:03:24.583
01:10:14.500                             : en:01:10:14.500
01:15:27.292                             : en:01:15:27.292
01:23:51.083                             : en:01:23:51.083
01:36:00.500                             : en:01:36:00.500

BV: Скрытый текст / Картинка
http://img717.imageshack.us/img717/6882/005078.jpg


Статус раздачи - http://s019.radikal.ru/i601/1203/7e/53045735b2a3.gif (рейтинг за скачивание не учитывается)


Об этом нужно петь / Something To Sing About (2000) DVD5
Об этом нужно петь / Something To Sing About (2000) DVD5

Размер: 2.38 GB
Добавлен: 2013-02-12 20:33:07
0161 4
Название: Об этом нужно петь
Оригинальное название: Something To Sing About
Год выпуска: 2000
Жанр: драма, музыка
Выпущено: США
Режисер: Чарли Джордан
В ролях: Ирма П. Холл, Дариус МакКрэри, Тамера Моури, Рашаан Нэлл, Лобо Себастьян, Кирк Франклин, Барт Брэверман, Брайан Дж. Уайт, Девика Парих, Джек Аксельрод

Описание:
История о любви, дружбе и борьбе за изменения. В ролях Ирма Хол (Пэч Адамс), Дэриус Маккрэри (Семейные Вопросы), Тамера Маури (Сестра, сестра) Рашаан Нол  и победитель премии Грэмми Кирк Франклин.

Томми (Маккрэри) – молодой человек с ангельским голосом, но уже отбывший срок наказания. Его мечты о постоянной работе и лучшей жизни выглядят несбыточными, пока крепкая христианка с большим сердцем Мемоу (Холл) не взяла его под своё крыло. Вскоре вера Мемоу начинает сказываться. Лили (Маури), внучка Мемоу, не менее поражена этим беспризорником. Она всё больше ценит его искреннее смирение и теплоту, и их отношения крепнут. Джи Смуту (Нолл), другу детства Томми, просто нужен партнер-наркоторговец, и он не может поверить, что у старого друга Ти-Эн-Ти теперь появилась «религия». Смут отшучивается от Томми, пока тот не начинает бороться за его жизнь.  Впервые в жизни у Томми есть то, на что надеяться; то, ради чего стоит жить и то, о чём нужно петь. Вы будете улыбаться и петь, а ваш дух воспарит ввысь!

Качество: DVD5
Формат: DVD-Video
Видео: MPEG-2, NTSC, 720x480 (4:3), 29.970 fps, 5189 kbps
Аудио: Dolby AC-3, 6 ch, 48.0 KHz, 448 kbps
Продолжительность: 01:26:24
Перевод: Русский любительский (одноголосый) озвучка группы ©jesus-torrent.ru

Посмотреть онлайн на God-Tv.ru


Камилла и Себастьян / Kamilla Og Tyven del 2 (1989) DVD5
Камилла и Себастьян / Kamilla Og Tyven del 2 (1989) DVD5

Размер: 3.19 GB
Добавлен: 2013-02-01 17:29:20
0149 0
Название: Камилла и Себастьян (Камилла и Вор 2)
Оригинальное название: Kamilla og tyven del 2
Год выпуска: 1989
Страна: Норвегия
Жанр: Драма, семейный
Режиссер: Грете Саломонсен
В ролях: Вероника Флаат, Деннис Стурхёй, Агнете Г. Хааланд, Мортен Харкет, Турид Бальке, Анне Марие Бьерведт, Уле Гейр Фесте, Бьерн Фуруборг, Кааре Кроппан, Норманн Лине, Трине Лине, Мариа дель Мар, Анне Ма Устеруд, Уле Мое, Брит Мюнте, Альф Норванг, Хельге Нюгорд, Марит Естбие, Кнут Естродаль, Гвин Еверланд, Мартин Шёлие, Эва Тённесен, Силье Тронес Лёнсет, Сверре Вильберг, Кааре Захариассе

Описание:
После освобождения из тюрьмы бывший вор сталкивается с трудностями на новом пути, но не отчаивается и продолжает путь.Оптимизм помогает ему идти правдивой дорогой и в конце он обретает всё то, о чём мог раньше только мечтать.

Качество: DVD5
Формат: MPEG-PS
Видео: MPEG-2, 720x576 (16:9), 25.000 fps, 4502 (9200) kbps
Аудио: AC-3, 48.0 KHz, 6 ch, 384 kbps
Продолжительность: 01:34:07
Перевод: Русский любительский (одноголосый) [озвучка группы Jesus-torrent.ru]
Субтитры: русские (только к песням)

Посмотреть онлайн на God-Tv.ru


Когда любви недостаточно: История Лоис Уилсон / When Love Is Not Enough: The Lois Wilson Story (2010) DVD5
Когда любви недостаточно: История Лоис Уилсон / When Love Is Not Enough: The Lois Wilson Story (2010) DVD5

Размер: 4.34 GB
Добавлен: 2013-01-25 03:55:03
0178 1
Название: Когда любви не достаточно: История Лоис Уилсон
Оригинальное название: When Love Is Not Enough: The Lois Wilson Story
Год выпуска: 2010
Жанр: драма, биография
Выпущено: Канада, США / CBS Television Network, E1 Entertainment, Hallmark Hall of Fame Productions
Режиссер: Джон Кент Харрисон
В ролях: Вайнона Райдер, Бэрри Пеппер, Джон Буржуа, Розмари Дансмор, Пол Попович, Адам Грейдон Рейд, Эллен Дубин, Сара Мэннинен, Сара Додд, Линн Гриффин

Описание:
Фильм основан на реальных событиях и повествует нам историю великой, но проблемной любви между Лоис Уилсон и её мужем. Проблемной, потому, что Билл, которого Лоис любила всем сердцем, спивался у неё на глазах. С этой несчастной пары и берёт своё начало клуб анонимных алкоголиков…

Качество: DVD5
Формат: MPEG-TS
Видео: MPEG-2, 720x576 (16:9), 25.000 fps, 5914 (7600) kbps
Аудио1: RU, AC-3, 48.0 KHz, 2 ch (Front: L R), 192 kbps
Аудио2: EN, AC-3, 48.0 KHz, 2 ch (Front: L R), 192 kbps
Продолжительность: 01:36:07
Перевод: Русский профессиональный (многоголосый)

Коврики: Скрытый текст / Картинка

http://i42.fastpic.ru/big/2012/0804/55/_705a54146e2c1a735db593fc9b54fb55.jpg?noht=1
http://i41.fastpic.ru/big/2012/0804/6f/8794bc28cc994d10a0fc31f271a3866f.jpg


Посмотреть онлайн на God-Tv.ru


Отверженные / Les Miserables (1998) BDRemux, 1080p
Отверженные / Les Miserables (1998) BDRemux, 1080p

Размер: 27.45 GB
Добавлен: 2013-01-20 16:31:49
0117 5
Русское название: Отверженные
Оригинальное название: Les Miserables
Год выпуска: 1998
Жанр: Драма, Мелодрама
Выпущено: Великобритания, Германия, США, Mandalay Entertainment, TriStar Pictures
Режиссер: Билле Аугуст
Актеры: Лиам Нисон, Джеффри Раш, Ума Турман, Клэр Дэйнс, Кристофер Адамсон, Ганс Мэтисон, Филип МакГоф, Тоби Джонс, Рейне Бринолфссон, Кэтлин Байрон, Тим Барлоу, Тимоти Бейтсон, Вероника Бендова, Дэвид Биркин, Пэтси Бирн, Вацлав Чалупа, Йен Грегг, Бен Кромптон, Зденек Дэвид, Паола Дионисотти, Эдна Доре, Луис Хэммонд, Джиллиан Ханна, Джанет Хенфри, Шэйн Херви, Зденек Хесс, Джерард Хоран, Келли Хантер, Ленни Джеймс, Джон Кенни, Павел Кочи, Сильви Коблизкова, Ян Кузелька, Питер Макриел, Марджери Мейсон, Шеннон МакКормик, Джон МакГлинн, Дэвид МакКэй, Мими Ньюман, Алекс Нортон, Ральф Носсек, Фрэнк О’Салливан

Описание фильма:
Первая половина девятнадцатого века. Франция находится на пороге революции. Жан Вальжан — отверженный, приговоренный к тюремному заключению и вынужденный скрываться от жестокого правосудия. Начальник парижского департамента полиции Жавер считает его поимку делом всей своей жизни. После смерти возлюбленной Жана единственным близким человеком для него остается ее дочь Козетт. Он пойдет на все ради ее счастья… навстречу своему злейшему врагу.

Дополнительно:
Рейтинг PG-13 - Дети до 13 лет допускаются на фильм только с родителями
Дата мировой премьеры: 1 мая 1998

Качество: BDRemux, 1080p
Формат: MKV
Видео: MPEG-4 AVC/H.264, BDMV, 24945 Кбит/с, 1920x1080
Аудио #1: Русский (АС3, 6 ch, 448 Кбит/с) - [Дублированный]
Аудио #2: Русский (АС3, 2 ch, 192 Кбит/с) - [Профессиональный двухголосый]
Аудио #3: Английский (DTS, 6 ch, 2153 Кбит/с) - [Оригинальный]
Продолжительность: 02:13:57
Перевод: Русский, Дублированный + Профессиональный двухголосый
Язык субтитров: Русские, английские
Вид субтитров: Вшитые

BDInfo: Скрытый текст / Картинка
DISC INFO:

Disc Title:     Les Miserables (1998)
Disc Size:      29 469 021 220 bytes
Protection:     AACS
BD-Java:        No
BDInfo:         0.5.6

PLAYLIST REPORT:

Name:                   00000.MPLS
Length:                 2:13:57 (h:m:s)
Size:                   29 468 897 280 bytes
Total Bitrate:          29,33 Mbps

VIDEO:

Codec                   Bitrate             Description
-----                   -------             -----------
MPEG-4 AVC Video        24945 kbps          1080p / 23,976 fps / 16:9 / High Profile 4.1

AUDIO:

Codec                           Language        Bitrate         Description
-----                           --------        -------         -----------
DTS-HD Master Audio             English         2153 kbps       5.1 / 48 kHz / 2153 kbps / 16-bit (DTS Core: 5.1 / 48 kHz / 1509 kbps / 16-bit)
Dolby Digital Audio             Russian         448 kbps        5.1 / 48 kHz / 448 kbps
Dolby Digital Audio             Russian         192 kbps        2.0 / 48 kHz / 192 kbps

SUBTITLES:

Codec                           Language        Bitrate         Description
-----                           --------        -------         -----------
Presentation Graphics           English         31,254 kbps
Presentation Graphics           Russian         16,792 kbps

FILES:

Name            Time In         Length          Size            Total Bitrate
----            -------         ------          ----            -------------
00000.M2TS      0:00:00.000     2:13:57.024     29 468 897 280  29 333

CHAPTERS:

Number          Time In         Length          Avg Video Rate  Max 1-Sec Rate  Max 1-Sec Time  Max 5-Sec Rate  Max 5-Sec Time  Max 10Sec Rate  Max 10Sec Time  Avg Frame Size  Max Frame Size  Max Frame Time
------          -------         ------          --------------  --------------  --------------  --------------  --------------  --------------  --------------  --------------  --------------  --------------
1               0:00:00.000     0:06:20.922     24 369 kbps     37 794 kbps     00:01:19.621    30 445 kbps     00:01:19.496    28 948 kbps     00:01:18.328    127 035 bytes   454 557 bytes   00:02:39.951
2               0:06:20.922     0:09:57.597     25 194 kbps     35 077 kbps     00:09:55.011    29 036 kbps     00:09:16.222    28 091 kbps     00:09:16.055    131 352 bytes   581 545 bytes   00:07:41.544
3               0:16:18.519     0:10:38.345     24 535 kbps     32 637 kbps     00:26:48.523    28 522 kbps     00:26:44.477    27 197 kbps     00:26:44.894    127 916 bytes   449 986 bytes   00:19:39.720
4               0:26:56.864     0:08:43.648     25 197 kbps     34 977 kbps     00:30:09.224    32 219 kbps     00:30:06.262    29 048 kbps     00:27:32.859    131 367 bytes   524 459 bytes   00:27:04.247
5               0:35:40.513     0:11:40.534     24 809 kbps     33 162 kbps     00:40:15.496    29 146 kbps     00:46:49.806    28 834 kbps     00:46:47.346    129 338 bytes   486 175 bytes   00:40:58.914
6               0:47:21.047     0:07:54.014     26 606 kbps     34 728 kbps     00:51:25.957    29 997 kbps     00:50:28.150    29 581 kbps     00:50:25.147    138 709 bytes   487 155 bytes   00:48:54.640
7               0:55:15.062     0:06:32.058     25 385 kbps     35 058 kbps     01:01:01.491    30 079 kbps     01:00:28.166    28 905 kbps     01:00:27.332    132 361 bytes   565 641 bytes   01:00:56.736
8               1:01:47.120     0:11:50.835     24 186 kbps     40 653 kbps     01:06:15.554    31 347 kbps     01:06:15.137    29 795 kbps     01:06:26.315    126 095 bytes   601 575 bytes   01:06:32.071
9               1:13:37.955     0:02:59.596     26 150 kbps     32 596 kbps     01:13:38.664    28 648 kbps     01:14:26.920    28 289 kbps     01:15:03.540    136 334 bytes   498 576 bytes   01:15:22.935
10              1:16:37.551     0:07:27.238     25 814 kbps     38 256 kbps     01:17:59.007    31 760 kbps     01:17:59.007    29 739 kbps     01:17:57.923    134 569 bytes   557 601 bytes   01:18:49.057
11              1:24:04.790     0:12:04.849     24 782 kbps     33 345 kbps     01:34:58.609    28 807 kbps     01:28:00.191    28 772 kbps     01:27:55.186    129 201 bytes   674 666 bytes   01:33:46.329
12              1:36:09.639     0:03:58.779     25 669 kbps     32 325 kbps     01:38:18.142    29 419 kbps     01:37:55.494    28 148 kbps     01:39:04.313    133 850 bytes   471 752 bytes   01:39:17.618
13              1:40:08.419     0:10:00.475     25 008 kbps     37 852 kbps     01:46:32.552    32 267 kbps     01:46:30.550    30 657 kbps     01:46:26.004    130 373 bytes   569 347 bytes   01:47:33.822
14              1:50:08.894     0:05:08.265     23 405 kbps     35 865 kbps     01:53:02.609    25 846 kbps     01:53:02.817    24 751 kbps     01:52:57.687    122 037 bytes   408 237 bytes   01:52:40.753
15              1:55:17.160     0:09:38.912     24 229 kbps     40 123 kbps     01:57:27.665    28 942 kbps     01:59:08.391    27 594 kbps     01:59:02.134    126 309 bytes   486 798 bytes   01:57:27.790
16              2:04:56.072     0:09:00.951     25 061 kbps     34 420 kbps     02:08:08.013    29 978 kbps     02:08:08.013    29 032 kbps     02:08:06.512    130 686 bytes   448 733 bytes   02:13:40.262

Статус раздачи - http://s019.radikal.ru/i601/1203/7e/53045735b2a3.gif (рейтинг за скачивание не учитывается)


Человек-слон / The Elephant Man (1980) DVD9
Человек-слон / The Elephant Man (1980) DVD9

Размер: 6.08 GB
Добавлен: 2013-01-17 22:17:54
0016 4
Русское название: Человек-слон
Оригинальное название: The Elephant Man
Год выпуска: 1980
Жанр: Драма
Производство: США
Режиссер: Дэвид Линч
В ролях: Энтони Хопкинс, Джон Хёрт, Энн Бэнкрофт, Джон Гилгуд, Уэнди Хиллер, Фредди Джонс, Майкл Элфик, Ханна Гордон, Хелен Райан, Джон Стэндинг ...

Описание фильма:
Это правдивая и печальная история жизни реально существовавшего в 19 веке человека, Джона Меррика, страдавшего редчайшей болезнью, вызывавшей чудовищные деформации тела.

Молодой хирург Тривес, увидев это несчастное и забитое существо в балагане, выкупает его у хозяина из чисто научного интереса, но с удивлением обнаруживает в нем человека интеллектуально развитого и духовного. Профессиональный интерес сменяется состраданием, феномен становится моден в высшем свете, сама королева благословляет оставить его в больнице навсегда…

Дата мировой премьеры: 3 октября 1980
Дата выхода DVD релиза: 7 сентября 2010, «Юниверсал Пикчерс Рус»

Качество: DVD9
Формат: MPEG-PS
Видео: MPEG-2, ~5818 kb/s, 720x576@1024x576 (PAL 16:9) VBR Auto Letterboxed
Аудио #1: (Dolby AC3, 6 ch) ~448 kb/s |Русский, многоголосый закадровый|
Аудио #2: (Dolby AC3, 6 ch) ~448 kb/s |Английский, оригинальный|
Аудио #3: (DTS, 6 ch) ~755 kb/s |Русский, многоголосый закадровый|
Продолжительность: 01:58:05
Перевод: Многоголосый закадровый
Язык субтитров: Русский
Вид субтитров: Вшитые
СЭМПЛ

Дополнительные материалы: Скрытый текст / Картинка
Фильмографии:
-Дэвид Линч
-Энтони Хопкинс
-Джон Херт
-Энн Бэнкрофт

Награды: Скрытый текст / Картинка
>>>>>Главный приз на МКФ в Авориазе в 1981 году<<<<<
Сезар, 1982 год
Победитель:
>>>>>Лучший фильм на иностранном языке<<<<<
Оскар, 1981 год
Номинации:
>>>>>Лучший фильм<<<<<
>>>>>Лучшая мужская роль (Джон Хёрт)<<<<<
>>>>>Лучший режиссер (Дэвид Линч)<<<<<
>>>>>Лучший адаптированный сценарий<<<<<
>>>>>Лучшие декорации<<<<<
>>>>>Лучшие костюмы<<<<<
>>>>>Лучший монтаж<<<<<
>>>>>Лучший оригинальный саундтрек<<<<<
Золотой глобус, 1981 год
Номинации:
>>>>>Лучшая мужская роль (драма) (Джон Хёрт)<<<<<
>>>>>Лучший фильм (драма)<<<<<
>>>>>Лучший режиссер (Дэвид Линч)<<<<<
>>>>>Лучший сценарий<<<<<
Британская академия, 1981 год
Победитель:
>>>>>Лучший фильм<<<<<
>>>>>Лучшая мужская роль (Джон Хёрт)<<<<<
>>>>>Лучшая работа художника-постановщика<<<<<
Номинации:
>>>>>Лучший режиссер (Дэвид Линч)<<<<<
>>>>>Лучший сценарий<<<<<
>>>>>Лучшая работа оператора<<<<<
>>>>>Лучший монтаж<<<<<

DVDInfo: Скрытый текст / Картинка
Title: Человек-слон.1980.DVD9
Size: 6.08 Gb ( 6 371 996,00 KBytes ) - DVD-9
Enabled regions: 1, 2, 3, 4, 5, 6, 7, 8

VTS_01 :
  Play Length: 00:00:00
  Video: PAL 4:3 (720x576) VBR

VTS_02 :
  Play Length: 00:00:00
  Video: PAL 4:3 (720x576) VBR

VTS_03 :
  Play Length: 01:58:05
  Video: PAL 16:9 (720x576) VBR, Auto Letterboxed
  Audio:
      Russian (Dolby AC3, 6 ch)
      English (Dolby AC3, 6 ch)
      Russian (DTS, 6 ch)
  Subtitles:
      Russian

* Menus Information *

VIDEO_TS Menu
Video:
      PAL 4:3 (720x576) VBR
English Language Unit :
      Title Menu

VTS_01 Menu
Video:
      PAL 4:3 (720x576) VBR
Audio:
      Not specified (Dolby AC3, 2 ch)
English Language Unit :
      Root Menu

VTS_02 Menu
Video:
      PAL 4:3 (720x576) VBR
English Language Unit :
      Root Menu

VTS_03 Menu
Video:
      PAL 4:3 (720x576) VBR
English Language Unit :
      Root Menu
      Audio Menu
      Chapter (PTT) Menu

MediaInfo: Скрытый текст / Картинка

Формат                           : MPEG-PS
Размер файла                     : 1024 Мбайт
Продолжительность                : 18 м.
Общий поток                      : 7620 Кбит/сек

Видео
Идентификатор                    : 224 (0xE0)
Формат                           : MPEG Video
Версия формата                   : Version 2
Профиль формата                  : Main@Main
Параметр BVOP формата            : Да
Параметр матрицы формата         : Выборочная
Параметр GOP формата             : M=3, N=12
Продолжительность                : 18 м.
Вид битрейта                     : Переменный
Битрейт                          : 5818 Кбит/сек
Максимальный битрейт             : 7500 Кбит/сек
Ширина                           : 720 пикселей
Высота                           : 576 пикселей
Соотношение сторон               : 2,35:1
Частота кадров                   : 25,000 кадров/сек
Стандарт вещания                 : PAL
Цветовое пространство            : YUV
Субдискретизация насыщенности    : 4:2:0
Битовая глубина                  : 8 бит
Тип развёртки                    : Чересстрочная
Порядок развёртки                : Верхнее поле первое
Метод сжатия                     : С потерями
Бит/(Пиксели*Кадры)              : 0.561
Размер потока                    : 782 Мбайт (76%)

Аудио #1
Идентификатор                    : 189 (0xBD)-128 (0x80)
Формат                           : AC-3
Формат/Информация                : Audio Coding 3
Расширение режима                : CM (complete main)
Режим смешивания                 : DVD-Video
Продолжительность                : 18 м.
Вид битрейта                     : Постоянный
Битрейт                          : 448 Кбит/сек
Каналы                           : 6 каналов
Расположение каналов             : Front: L C R, Side: L R, LFE
Частота                          : 48,0 КГц
Битовая глубина                  : 16 бит
Метод сжатия                     : С потерями
Задержка видео                   : -448 мс.
Размер потока                    : 60,2 Мбайт (6%)

Аудио #2
Идентификатор                    : 189 (0xBD)-129 (0x81)
Формат                           : AC-3
Формат/Информация                : Audio Coding 3
Расширение режима                : CM (complete main)
Режим смешивания                 : DVD-Video
Продолжительность                : 18 м.
Вид битрейта                     : Постоянный
Битрейт                          : 448 Кбит/сек
Каналы                           : 6 каналов
Расположение каналов             : Front: L C R, Side: L R, LFE
Частота                          : 48,0 КГц
Битовая глубина                  : 16 бит
Метод сжатия                     : С потерями
Задержка видео                   : -448 мс.
Размер потока                    : 60,2 Мбайт (6%)

Аудио #3
Идентификатор                    : 189 (0xBD)-138 (0x8A)
Формат                           : DTS
Формат/Информация                : Digital Theater Systems
Режим смешивания                 : DVD-Video
Продолжительность                : 18 м.
Вид битрейта                     : Постоянный
Битрейт                          : 755 Кбит/сек
Каналы                           : 6 каналов
Расположение каналов             : Front: L C R, Side: L R, LFE
Частота                          : 48,0 КГц
Битовая глубина                  : 24 бит
Метод сжатия                     : С потерями
Задержка видео                   : -469 мс.
Размер потока                    : 101 Мбайт (10%)

Текст
Идентификатор                    : 189 (0xBD)-32 (0x20)
Формат                           : RLE
Формат/Информация                : Run-length encoding
Режим смешивания                 : DVD-Video
Продолжительность                : 18 м.
Задержка видео                   : 1 с. 920 мс.

Меню

Скриншоты меню: Скрытый текст / Картинка
http://i51.fastpic.ru/big/2013/0106/f5/3c006d850ce22c628471237117a5eff5.png http://i54.fastpic.ru/big/2013/0106/91/6dd253d16c923c60c6b2f8fd5da3d191.png http://i51.fastpic.ru/big/2013/0106/47/d2815de673619118d893cc905d6e5147.png http://i53.fastpic.ru/big/2013/0106/a3/806c15b307783ed5288a4ff03e5714a3.png

Статус раздачи - http://s019.radikal.ru/i601/1203/7e/53045735b2a3.gif (рейтинг за скачивание не учитывается)


Бен Гур / Ben-Hur (1959) DVD9+DVD5
Бен Гур / Ben-Hur (1959) DVD9+DVD5

Размер: 10.77 GB
Добавлен: 2013-01-06 05:25:48
0028 4
Название: Бен-Гур
Оригинальное название: Ben-Hur
Год выпуска: 1959
Жанр: исторический, драма, приключения
Выпущено: США (Metro-Goldwyn-Mayer)
Режиссер: Уильям Уайлер / William Wyler
В ролях: Чарлтон Хестон, Джек Хокинс, Хайя Харарит, Стивен Бойд, Хью Гриффит, Марта Скотт, Кэти О`Доннелл, Сэм Джаффе, Финлэй Карри, Фрэнк Тринг, Теренс Лонгдон, Джордж Релф, Андре Морелл и другие
Роли озвучивали: («Варус Видео»): Владимир Антоник, Юрий Саранцев, Анна Каменкова, Владимир Вихров, Владимир Ферапонтов, Ирина Губанова, Елена Борзунова, Владимир Радченко, Алексей Сафонов, Виктор Петров, Василий Куприянов, Владимир Конкин

Описание:
Действие фильма разворачивается в начале первого века нашей эры. Богатый еврей Иуда Бен Гур, живущий в Иерусалиме, и его старый друг Мессала встречаются после длительной разлуки. Разные политические взгляды делают их врагами: Иуда сочувствует борьбе своего народа за свободу, Мессала – трибун римского легиона – защищает интересы Империи. Во время торжественного парада с крыши дома Иуды падает кусок черепицы и едва не убивает римского наместника. И хотя Мессала знает, что это была чистая случайность, он посылает Иуду на галеры, а его мать и сестру бросает в тюрьму. Но Бен Гур не решает покоряться несправедливой, злой воле. Он обещает себе вернуться и отомстить...

Дополнительно:
Знаете ли вы: Скрытый текст / Картинка

Премии и награды:
1960 - ОСКАР

Победитель в категориях:
1 - Лучший фильм
2 - Лучший актер Чарлтон Хестон /Charlton Heston/
3 - Лучший режиссер Уильям Уайлер /William Wyler/
4 - Лучший актер второго плана Хью Гриффит /Hugh Griffith/
5 - Лучшая работа художника Уильям Э. Хорнинг /William A. Horning/ Эдвард Карфаньо /Edward Carfagno/
6 - Лучший дизайн костюмов Элизабет Хэффенден /Elizabeth Haffenden/
7 - Лучшие визуальные эффекты Роберт МакДоналд /Robert MacDonald/ Арнолд Гиллеспи /Arnold Gillespie/
8 - Лучший монтаж Джон Даннинг /John Dunning/ Ралф И. Уинтерс /Ralph E. Winters/
9 - Лучший монтаж звуковых эффектов
10 - Лучшая операторская работа (цв) Роберт Сертис /Robert Surtees/
11 - Лучшая музыка (драма или комедия) Миклош Рожа /Miklos Rozsa/

Номинирован в категориях:
1 - Лучший сценарист (адаптация) Карл Танберг /Karl Tunberg/
1960 - ЗО
  • ЛОТОЙ ГЛОБУС

    Победитель в категориях:
    1 - Лучший фильм (драма)
    2 - Лучшая режиссерская работа Уильям Уайлер /William Wyler/

  • О релизе: Скрытый текст / Картинка

    Испанская, польская дублированная и немецкая 5.1 дорожки заменены на русские 2.0 MVO (озвучка - «DVD Магия») и дублированную (озвучка - «Варус Видео», оцифровка и синхронизация, засинхронизировано по английским дорожкам. Хорватские и финские субтитры заменены на русские. Удалены немецкое и испанское меню. Соответственно переделаны меню языков и субтитров. Видео и звук не пережимались.

    Бонусы: Скрытый текст / Картинка
    "Commentary by T. Gene Hatcher with Charlton Heston" (не переведены).

    Меню: Скрытый текст / Картинка
    присутствует: английское, анимированное, озвученное


    Качество: DVD9+DVD5
    Формат: MPEG-PS
    Видео: MPEG-2, 720x576 (16:9), 25.000 fps, 5670 (7500) Kbps
    Аудио1: Dolby AC-3, 48.0 KHz, 6 ch, 384 Kbps [Английский (оригинал)]
    Аудио2: Dolby AC-3, 48.0 KHz, 2 ch, 192 Kbps [Русский профессиональный (дублированный) «Варус Видео»]
    Аудио3: Dolby AC-3, 48.0 KHz, 2 ch, 192 Kbps [Русский профессиональный (многоголосый закадровый) «DVD Магия»]
    Аудио4: Dolby AC-3, 48.0 KHz, 6 ch, 384 Kbps [Русский профессиональный (многоголосый закадровый) «Азимут»]
    Аудио5: Dolby AC-3, 48.0 KHz, 2 ch, 192 Kbps [Английский (орининал) director comments]
    Продолжительность: 02:16:03 + 01:17:14
    Cубтитры: английские, русские (2 варианта), чешские, датские, немецкие, греческие, еврейские (иврит), венгерские, исландские, норвежские, польские, португальские, сербские, словенские, испанские, шведские, турецкие, английские для слабослышащих, немецкие для слабослышащих


    Восхождение / The Climb (2002) DVD5
    Восхождение / The Climb (2002) DVD5

    Размер: 3.81 GB
    Добавлен: 2012-12-25 05:03:24
    11109 6
    Название: Восхождение
    Оригинальное название: The Climb
    Год выпуска: 2002
    Жанр: Приключения
    Выпущено: США, World Wide Pictures Inc.
    Режиссер: Джон Шмидт / John Schmidt
    В ролях: Джейсон Уинстон Джордж, Нед Вон, Дэбни Коулман, Кайли Сантьяго, Дэвид Стюарт, Тодд Бриджес, Кристиан Стивенс, Джон Шеперд, Терри Вуд, Джим Шмидт

    Описание:
    Молодые отважные альпинисты Деррик Уильямс и Майкл Харрис знамениты своими сольными восхождениями. Они оба мечтают покорить Чиканагу - одну из самых опасных и недоступных вершин южноамериканских Анд и совершенно не могут терпеть друг друга. Если Деррик темпераментен и горяч, то Майкл хладнокровен и осторожен, а их жизненные позиции не совпадают ни по одному вопросу. Но влиятельный бизнесмен Мэки Леонард соглашается финансировать восхождение лишь при одном условии - Деррик и Майкл должны пойти вдвоем. Шумная рекламная кампания, развернутая Леонардом в прессе, воспринимается Дерриком как должное, но сильно раздражает Майкла. Интенсивные тренировки тоже не добавляют альпинистам симпатий друг к другу. Но перед лицом суровых Чилийских Анд им придется забыть о своих разногласиях...

    Качество: DVD5
    Формат: MPEG-PS
    Видео: MPEG-2, 720x576 (4:3), 25.000 fps, 4787 Kbps
    Аудио: AC-3, 48.0 KHz, 6 ch, 384 Kbps
    Продолжительность: 01:39:08
    Перевод: Русский профессиональный (дублированный)


    Старец Паисий и я, стоящий вверх ногами (2012) DVD5
    Старец Паисий и я, стоящий вверх ногами (2012) DVD5

    Размер: 4.15 GB
    Добавлен: 2012-12-17 17:00:05
    10103 1
    Название: Старец Паисий и я, стоящий вверх ногами
    Год выхода: 2012
    Жанр: Притча
    Страна: Россия
    Студия: Телеканал "Культура", студия "Фишка-фильм"
    Режиссер: Александр Столяров
    В ролях: Сергей Соколов (Паисий), Даниил Усачев (Пётр), Александр Столяров (пономарь)...

    Описание:
    "Исихия" - безмолвие (по-гречески). Монашество - путь к безмолвию. Наш герой - монах. У него есть прототип - старец Паисий, греческий монах, ныне святой, скончавшийся в конце ХХ века на Афоне. Другой монах - Христодул Агиорит - записал рассказы о нём. А мы написали сценарий православной комедии, в которой злу противостоят два монаха - старый и молодой. Это почти анекдоты. В них наш главный герой простоват (Швейк в рясе), и это при том, что настоящий старец Паисий сам написал три богословские книги. В нашем фильме герой действует - побеждает и попадает впросак, - но ни на миг не покидает его исихия. И всё видимое и слышимое, всё то, что происходит с ним, - случайные лучи огромной тайны. Второй наш герой - молодой монах, он всё время рядом со старцем. На глазах старца он сомневается и утверждается в чистоте любви. Последние дни в жизни старца и первые дни монастырской жизни молодого монаха охватывает наш фильм. Паисий умирает, молодой монах в огорчении покидает монастырь. Кажется, что всё кончилось. Но вдруг - чудо, опять чудо, их много в нашем фильме, зачастую они обыкновенны, как наша жизнь, но она и есть - чудо.

    Качество: DVD5
    Формат: MPEG-PS
    Видео:  6984 Кбит/сек, 720*576 (16:9), в 25,000 кадров/сек, MPEG Video (PAL) (Version 2) (Main@Main) (CustomMatrix / BVOP)
    Аудио: 48 kHz, AC3 Dolby Digital, 2/0 (L,R) ch, ~256 kbps
    Продолжительность: 01:21:14
    Язык: Русский (оригинал)
    Дополнительно: На 43-й минуте пропадает звук на 40 секунд.