:: Детали торрента
В закладки
Музыка зарубежнаяTony Melendez - Ways of the wise (1990) FLAC, Lossless Скачать
Хэш релиза5485d2b565554a9d70965498b7e108de5de72046
ПостерTony Melendez - Ways of the wise (1990) FLAC, Lossless
ОписаниеИсполнитель: Tony Melendez
Альбом: Ways of the wise
Год выхода: 1990
Жанр: Christian Contemporary
Аудио: FLAC, Lossless [Log/tracks+.cue]
Продолжительность: 00:39:09

Треклист:
01. Way Of The Wise
02. He Can See
03. Heart Of Stone
04. You Are My God
05. Thief In The Night
06. Psalm For The Table
07. Silent Scream
08. Bed By The Window
09. Heaven's In Your Heart
10 Over And Over

"Log"
Exact Audio Copy V0.99 prebeta 5 from 4. May 2009

Отчёт EAC об извлечении, выполненном 29. июня 2011, 16:17

Tony Melendez / Ways of the wise

Дисковод: HL-DT-STDVDRAM GSA-4167B   Adapter: 0  ID: 0

Режим чтения                 : Достоверность
Использование точного потока : Да
Отключение кэша аудио        : Да
Использование указателей C2  : Нет

Коррекция смещения при чтении                     : 667
Способность читать области Lead-in и Lead-out     : Нет
Заполнение пропущенных сэмплов тишиной            : Да
Удаление блоков с тишиной в начале и конце        : Нет
При вычислениях CRC использовались нулевые сэмплы : Нет
Интерфейс                                         : Встроенный Win32-интерфейс для Win NT/2000
Обработка зазоров                                 : Добавлено к предыдущему треку

Выходной формат          : Пользовательский кодировщик
Выбранный битрейт        : 1024 kBit/s
Качество                 : Высокий
Добавление ID3-тэга      : Нет
Утилита сжатия           : C:\Program Files\Exact Audio Copy\FLAC\FLAC.EXE
Дополнительные параметры : -8 -V -T "ARTIST=%a" -T "TITLE=%t" -T "ALBUM=%g" -T "DATE=%y" -T"TRACKNUMBER=%n" -T "GENRE=%m" -T "COMMENT=EAC FLAC -8" %s

TOC извлечённого CD

     Трек |   Старт  | Длительность | Начальный сектор | Конечный сектор
    ---------------------------------------------------------------------
       1  |  0:00.47 |    4:06.63   |          47      |      18559      
       2  |  4:07.35 |    3:05.32   |       18560      |      32466      
       3  |  7:12.67 |    3:03.48   |       32467      |      46239      
       4  | 10:16.40 |    4:12.07   |       46240      |      65146      
       5  | 14:28.47 |    4:53.08   |       65147      |      87129      
       6  | 19:21.55 |    4:13.40   |       87130      |     106144      
       7  | 23:35.20 |    3:28.45   |      106145      |     121789      
       8  | 27:03.65 |    4:43.12   |      121790      |     143026      
       9  | 31:47.02 |    3:29.50   |      143027      |     158751      
      10  | 35:16.52 |    3:53.70   |      158752      |     176296      

Трек  1

     Имя файла J:\Музыка\Сборник англ\Tony Melendez - Ways of the wise [FLAC]\Tony Melendez-Ways of the wise01. Track01.wav

     Длина предзазора  0:00:02.47

     Пиковый уровень 92.5 %
     Качество трека 100.0 %
     CRC теста 7D827506
     CRC копии 7D827506
     Трек не обнаружен в базе AccurateRip
     Копирование... OK

Трек  2

     Имя файла J:\Музыка\Сборник англ\Tony Melendez - Ways of the wise [FLAC]\Tony Melendez-Ways of the wise02. Track02.wav

     Пиковый уровень 69.5 %
     Качество трека 100.0 %
     CRC теста 7E4A1C46
     CRC копии 7E4A1C46
     Трек не обнаружен в базе AccurateRip
     Копирование... OK

Трек  3

     Имя файла J:\Музыка\Сборник англ\Tony Melendez - Ways of the wise [FLAC]\Tony Melendez-Ways of the wise03. Track03.wav

     Пиковый уровень 80.9 %
     Качество трека 99.9 %
     CRC теста 6EF705A8
     CRC копии 6EF705A8
     Трек не обнаружен в базе AccurateRip
     Копирование... OK

Трек  4

     Имя файла J:\Музыка\Сборник англ\Tony Melendez - Ways of the wise [FLAC]\Tony Melendez-Ways of the wise04. Track04.wav

     Пиковый уровень 66.6 %
     Качество трека 100.0 %
     CRC теста 9B98C2E9
     CRC копии 9B98C2E9
     Трек не обнаружен в базе AccurateRip
     Копирование... OK

Трек  5

     Имя файла J:\Музыка\Сборник англ\Tony Melendez - Ways of the wise [FLAC]\Tony Melendez-Ways of the wise05. Track05.wav

     Пиковый уровень 65.2 %
     Качество трека 100.0 %
     CRC теста B518DE48
     CRC копии B518DE48
     Трек не обнаружен в базе AccurateRip
     Копирование... OK

Трек  6

     Имя файла J:\Музыка\Сборник англ\Tony Melendez - Ways of the wise [FLAC]\Tony Melendez-Ways of the wise06. Track06.wav

     Пиковый уровень 90.2 %
     Качество трека 100.0 %
     CRC теста EC41CBAF
     CRC копии EC41CBAF
     Трек не обнаружен в базе AccurateRip
     Копирование... OK

Трек  7

     Имя файла J:\Музыка\Сборник англ\Tony Melendez - Ways of the wise [FLAC]\Tony Melendez-Ways of the wise07. Track07.wav

     Пиковый уровень 58.2 %
     Качество трека 100.0 %
     CRC теста 6923E723
     CRC копии 6923E723
     Трек не обнаружен в базе AccurateRip
     Копирование... OK

Трек  8

     Имя файла J:\Музыка\Сборник англ\Tony Melendez - Ways of the wise [FLAC]\Tony Melendez-Ways of the wise08. Track08.wav

     Пиковый уровень 35.5 %
     Качество трека 100.0 %
     CRC теста 4FA8D63C
     CRC копии 4FA8D63C
     Трек не обнаружен в базе AccurateRip
     Копирование... OK

Трек  9

     Имя файла J:\Музыка\Сборник англ\Tony Melendez - Ways of the wise [FLAC]\Tony Melendez-Ways of the wise09. Track09.wav

     Пиковый уровень 78.9 %
     Качество трека 100.0 %
     CRC теста 24CA4449
     CRC копии 24CA4449
     Трек не обнаружен в базе AccurateRip
     Копирование... OK

Трек 10

     Имя файла J:\Музыка\Сборник англ\Tony Melendez - Ways of the wise [FLAC]\Tony Melendez-Ways of the wise10. Track10.wav

     Пиковый уровень 44.1 %
     Качество трека 100.0 %
     CRC теста C07162B5
     CRC копии C07162B5
     Трек не обнаружен в базе AccurateRip
     Копирование... OK

Ни одного трека нет в базе AccurateRip

Ошибок не произошло

Конец отчёта


"Видео на Ютубе - Tony Melendez - безрукий гитарист"


ТипМузыка зарубежная
РаздающийПоследний раз был здесь 25:27 назад
Размер234.66 MB (246,060,002 байт)
Оценка
Оценка: 5.0 / 5 (5.0 из 5 с 3 Голосов)        (Log in to rate it)
Добавлен2012-04-02 08:16:00
Взят54
РаздалPashakorg Респект  Антиреспект
Файлов: 12
В раздаче: 1 0
Скачан 30

:: Список комментариев
Страницы:  1 
:: Не в сети rootim :: Почётный аплоадер :: upload 2.70 TB :: download 224.13 GB :: 12.32 :: 0

Спасибо, давно хотел послушать Тони Мелендез.


Добавлено: 2012-04-02 09:25:20

Всего 1 на 1 страницах по 10 на каждой странице.

Страницы:  1 
 :: Добавить комментарий к торренту