загрузка пожалуйста подождите

GRACE CLOWN SHOW(Шоу Клоуна Благодати)




:: Детали торрента
В закладки
МультфильмыВ поисках Немо / Finding Nemo (2003) BDRip-AVC Скачать
Хэш релиза6c22ff95b5085083801b7b22d5861b2700ced78d
Постер/Скриншоты
           
ОписаниеОригинальное название: Finding Nemo http://torrents.te.ua/pic/star.gifhttp://jesus-torrent.ru/pic/gold.gifhttp://torrents.te.ua/pic/star.gif
Русское название: В поисках Немо
Жанр: мультфильм, комедия, приключения, семейный
Год выхода: 2003
Режиссер: Эндрю Стэнтон, Ли Анкрич
В ролях: Альберт Брукс, Эллен ДеДженерес, Александр Гулд, Уиллем Дефо, Эллисон Дженни, Джо Рэнфт, Джеффри Раш, Элизабет Перкинс, Эрик Бана, Эндрю Стэнтон
Страна: Австралия, США. Студия:  Walt Disney Pictures


http://s017.radikal.ru/i414/1306/c0/fb2e5b2b1330.gif Среди прекрасных тропических морских стихий, в районе Большого барьерного рифа в уединении живет рыба-клоун по имени Марлин. Он растит своего единственного сыночка Немо. Океан и существующие в нем опасности очень страшат Марлина, и он как может ограждает сына от них, но молодой Немо, страдающий излишним любопытством, очень хочет разузнать побольше о таинственном рифе, рядом с которым они живут.
Когда Немо по иронии судьбы оказывается вдалеке от дома, да и еще сталкивается с угрозой стать обедом рыбы-танка, Марлин отправляется на поиски сына. Но Марлин, конечно же, понимает, что героический спасатель из него не получится и просит о помощи в поисках, Дори, королевскую синюю рыбу, которая хоть и страдает от того, что почти ничего не помнит, но добрее ее не отыскать во всем безбрежном океане!
Итак, наши герои отправляются в путешествие, в котором их подкарауливают многочисленные трудности и опасности…

Формат:MKV
Кодек: h.264
Качество: BDRip-AVC
Видео: 1678 Kbps, 1024x576, 23.976 fps
Аудио: AC3, 6 channels, 384 Kbps, 48000
Продолжительность: 01:40:54
Перевод: Русский. Дублированный
http://rating.kinopoisk.ru/7908.gifMI Скрытый текст / Картинка


Format version : Version 2
File size : 1.45 GiB
Duration : 1h 40mn
Overall bit rate : 2 063 Kbps
Movie name : V poiskah Nemo (2003) BDRemux NNM-CLUB
Encoded date : UTC 2012-11-20 09:17:27
Writing application : mkvmerge v5.0.1 ('Es ist Sommer') built on Oct 24 2011 19:45:06
Writing library : libebml v1.2.2 + libmatroska v1.3.0

Video
ID : 1
Format : AVC
Format/Info : Advanced Video Codec
Format profile : High@L4.1
Format settings, CABAC : Yes
Format settings, ReFrames : 14 frames
Codec ID : V_MPEG4/ISO/AVC
Duration : 1h 40mn
Bit rate : 1 678 Kbps
Width : 1 024 pixels
Height : 576 pixels
Display aspect ratio : 16:9
Frame rate : 23.976 fps
Color space : YUV
Chroma subsampling : 4:2:0
Bit depth : 8 bits
Scan type : Progressive
Bits/(Pixel*Frame) : 0.119
Stream size : 1.15 GiB (79%)
Writing library : x264 core 124 r2197 69a0443
Encoding settings : cabac=1 / ref=14 / deblock=1:0:0 / analyse=0x3:0x133 / me=umh / subme=10 / psy=1 / psy_rd=1.00:0.00 / mixed_ref=1 / me_range=32 / chroma_me=1 / trellis=2 / 8x8dct=1 / cqm=0 / deadzone=21,11 / fast_pskip=0 / chroma_qp_offset=-2 / threads=9 / sliced_threads=0 / nr=0 / decimate=1 / interlaced=0 / bluray_compat=0 / constrained_intra=0 / bframes=8 / b_pyramid=2 / b_adapt=2 / b_bias=0 / direct=3 / weightb=1 / open_gop=0 / weightp=2 / keyint=240 / keyint_min=23 / scenecut=40 / intra_refresh=0 / rc_lookahead=60 / rc=2pass / mbtree=1 / bitrate=1678 / ratetol=1.0 / qcomp=0.60 / qpmin=0 / qpmax=69 / qpstep=4 / cplxblur=20.0 / qblur=0.5 / ip_ratio=1.40 / aq=1:1.00
Language : English
Default : Yes
Forced : No

Audio
ID : 2
Format : AC-3
Format/Info : Audio Coding 3
Mode extension : CM (complete main)
Format settings, Endianness : Big
Codec ID : A_AC3
Duration : 1h 40mn
Bit rate mode : Constant
Bit rate : 384 Kbps
Channel(s) : 6 channels
Channel positions : Front: L C R, Side: L R, LFE
Sampling rate : 48.0 KHz
Bit depth : 16 bits
Compression mode : Lossy
Stream size : 277 MiB (19%)
Title : Dolby Digital Audio (DUB - R5)
Language : Russian
Default : No
Forced : No

ВидимыйНет (мертвый)
ТипМультфильмы
РаздающийПоследний раз был здесь 77d 04:42:03 назад
Размер1.45 GB (1,561,191,179 байт)
Оценка
Оценка: 5.0 / 5 (5.0 из 5 с 3 Голосов)        (Log in to rate it)
Добавлен2013-10-01 15:43:48
Взят208
Раздалnatkha Респект
Файлов: 1
В раздаче: 0 0
Скачан 72

:: Список комментариев
Страницы:  1 
:: Не в сети natkha :: Почётный аплоадер :: upload 1.19 TB :: download 173.38 GB :: 7.04 :: 0

Цитата
Мультик о семейных ценностях, с потрясной, очень четкой графикой, невероятно достоверно прорисованной водой, с юмором, который нисколько не надоедает. Очень грамотно поставлен сюжет, за которым наблюдаешь не отрываясь от экрана. Порадовал дубляж. Саундтрек бесподобен. Мультфильм будет интересен как детям так и их родителям, т. к. он очень добрый и атмосферный. Желаю приятного просмотра!

Последний раз редактировалось natkha в 2013-10-01 19:39:06



Добавлено: 2013-10-01 15:55:55

:: Не в сети natkha :: Почётный аплоадер :: upload 1.19 TB :: download 173.38 GB :: 7.04 :: 0



Добавлено: 2013-10-01 15:59:01

:: Не в сети Voin777 ::Donor Внимательный :) :: upload 10.79 TB :: download 11.73 GB :: 941.79 :: 0

хороший мультик, есть такой в наличии....


Добавлено: 2013-10-01 18:53:03

:: Не в сети natkha :: Почётный аплоадер :: upload 1.19 TB :: download 173.38 GB :: 7.04 :: 0

Награды Скрытый текст / Картинка

приз Национального совета обозревателей за лучший анимационный фильм

Оскар, 2004 год Победитель (1): http://st-ua.kinopoisk.ru/images/movies/awardOscar.png
    Лучший анимационный фильм

Номинации (3):

   Лучший оригинальный сценарий
    Лучший монтаж звука
    Лучший оригинальный саундтрек




Золотой глобус, 2004 год http://st-ua.kinopoisk.ru/images/award-golden_globes-small-no.jpg
Номинации (1):

    Лучший фильм (комедия или мюзикл)



Премия канала «MTV», 2004 год http://st-ua.kinopoisk.ru/images/award-mtv-small-no.jpg
Номинации (2):

    Лучший фильм
    Лучшая комедийная роль (Эллен ДеДженерес)



Британская академия, 2004 год http://st-ua.kinopoisk.ru/images/award-bafta-small-no.jpg
Номинации (1):

    Лучший оригинальный сценарий



Сатурн, 2004 год Победитель (2): http://st-ua.kinopoisk.ru/images/award-saturn-small.jpg

    Лучшая актриса второго плана (Эллен ДеДженерес)
    Лучший анимационный фильм

Номинации (3):

    Лучший сценарий
    Лучшая музыка
    Лучшее специальное DVD-издание



Европейская киноакадемия, 2003 год
Номинации (1):

    Приз Screen International Award


Добавлено: 2013-10-03 17:36:27

:: Не в сети natkha :: Почётный аплоадер :: upload 1.19 TB :: download 173.38 GB :: 7.04 :: 0

http://torrents.te.ua/pic/star.gifhttp://jesus-torrent.ru/pic/gold.gifhttp://torrents.te.ua/pic/star.gifhttp://s15.rimg.info/107144714dc0fbb67952670ef0934a80.gif
http://s44.radikal.ru/i104/1310/7b/adcd8ad01534.gifhttp://s9.rimg.info/f3296c7c0412eaf27074fb0a29924c0e.gif


Добавлено: 2013-10-04 00:19:21

:: Не в сети Voin777 ::Donor Внимательный :) :: upload 10.79 TB :: download 11.73 GB :: 941.79 :: +1

natkha писал
http://torrents.te.ua/pic/star.gifhttp://jesus-torrent.ru/pic/gold.gifhttp://torrents.te.ua/pic/star.gifhttp://s15.rimg.info/107144714dc0fbb67952670ef0934a80.gif
http://s44.radikal.ru/i104/1310/7b/adcd8ad01534.gifhttp://s9.rimg.info/f3296c7c0412eaf27074fb0a29924c0e.gif


рады старатся !http://imgdepo.ru/id/i5048755


Добавлено: 2013-10-05 19:12:29

Всего 6 на 1 страницах по 10 на каждой странице.

Страницы:  1 
 :: Добавить комментарий к торренту